#TITLE:Groovin' Magic;
#SUBTITLE:- Gunbuster 2 Opening;
#ARTIST:Round Table feat. Nino;
#TITLETRANSLIT:;
#SUBTITLETRANSLIT:- Top wo Nerae 2! Opening;
#ARTISTTRANSLIT:;
#CREDIT:Mellow;
#BANNER:banner.png;
#BACKGROUND:background.jpg;
#LYRICSPATH:Groovin Magic.lrc;
#CDTITLE:CREDIT.png;
#MUSIC:groovin magic tv size.mp3;
#OFFSET:1.280;
#SAMPLESTART:4.010;
#SAMPLELENGTH:12.000;
#SELECTABLE:YES;
#BPMS:0.000=130.000,200.000=65.000;
#STOPS:;
#BGCHANGES:2.500=Groovin Magic op.avi=1.000=1=0=0,
203.000=background.jpg=1.000=1=0=0,
99999=-nosongbg-=1.000=0=0=0 // don't automatically add -songbackground-
;
// cache tags:
#FIRSTBEAT:3.500;
#LASTBEAT:206.000;
#SONGFILENAME:songs/Otaku's Dream 3rd Anime Mix/[errorrrr] Groovin' Magic - Gunbuster 2 OP/Groovin Magic.sm;
#HASMUSIC:1;
#HASBANNER:1;
#MUSICLENGTH:97.076;
// end cache tags

//---------------dance-single - Copied from----------------
#NOTES:
     dance-single:
     Copied from:
     Hard:
     6:
     0.518,0.716,0.484,0.577,0.005,249.000,47.000,56.000,0.000,0.000:
0000
0000
0000
0000
0000
0000
0000
0100
,
0000
0100
0100
0000
0101
0000
0000
0010
,
0000
0010
0010
0000
1010
0000
0000
0000
,
0202
0000
0000
0000
0000
0303
1000
0100
,
0000
0101
0000
0000
0000
1000
0100
0011
,
0000
0010
0100
1100
0000
1000
0100
0011
,
0000
0100
0010
0100
1000
0001
0100
0010
,
0000
1000
0100
0001
0010
0100
1000
0202
,
0303
2020
0000
0000
3030
0100
0001
1010
,
0000
0100
0001
1100
0000
0100
0010
2002
,
3003
0000
0002
0000
1003
0100
0000
1001
,
0000
0010
1000
0000
0101
0000
1000
0100
,
0000
0010
0100
0000
0100
0100
0000
2200
,
0000
0000
3300
0010
0100
0001
0000
1000
,
0010
0100
0002
0003
0100
0002
0003
0200
,
0300
1000
0010
0000
2200
0000
3300
0020
,
0030
0100
2000
3000
0001
0020
0030
0200
,
0000
0300
0010
1000
0001
1000
0100
0022
,
0000
0000
0000
0033
,
0000
0000
1000
0100
1001
1000
0100
0011
,
0000
1000
0100
0101
0000
0000
0000
0010
,
0100
0001
1000
0100
0010
0001
1000
1100
,
0000
0000
0000
0000
0000
0000
0100
0001
0100
0000
1000
0000
1000
0000
0000
0000
,
0000
1000
0001
0100
1000
0100
0001
1000
,
0010
0100
0010
0202
0303
1000
0220
0330
,
0001
2200
3300
0202
0303
0010
0100
0022
,
0033
2020
3030
0001
0200
0300
0020
0000
,
2030
3200
0300
0100
,
0000
1000
0001
0100
0010
1000
0100
0010
,
0100
1000
0100
0020
0000
0000
0030
0002
,
0003
0010
1000
0100
0101
0000
0010
1000
,
0010
0100
0011
0000
1000
0010
0000
0011
,
0000
1000
0100
0001
0000
0010
1000
0010
,
0100
0001
0010
0100
1000
0010
0100
0001
,
0000
0010
0100
1000
0100
0001
0100
1000
,
0200
0000
0010
0000
0000
0300
0001
0100
,
0000
2020
0000
0000
3030
0001
0100
1010
,
0000
0001
0100
1100
0000
0001
0100
2020
,
0000
0000
3030
0000
0100
0001
0100
1000
,
0000
0001
0100
1000
0100
0010
0001
1100
,
0000
0202
0000
0000
0303
1000
0100
0011
,
0000
1000
0001
1100
0000
0100
1000
0110
,
0000
0000
0010
0000
1000
0001
0000
0102
,
0000
0100
0100
0003
0100
0000
0000
0100
,
0000
0100
0101
0000
0101
0101
0000
2200
,
0000
3300
0000
0100
0001
2000
0000
3010
,
0000
0000
0001
0000
0010
0100
0000
2100
,
0000
0100
0100
0000
0100
0000
3000
0100
,
0000
0100
1000
0000
0001
0010
0000
2200
,
3300
0000
0010
0100
0010
0001
1000
2200
,
0000
0000
0000
0000
,
0300
0000
3000
0000
;

//---------------dance-single - Copied from Copied f----------------
#NOTES:
     dance-single:
     Copied from Copied f:
     Challenge:
     9:
     0.796,0.716,1.000,0.474,0.180,372.000,123.000,46.000,0.000,0.000:
0000
0000
0000
0000
0000
0000
0000
0110
,
0000
1100
1100
0000
0101
0000
0000
0110
,
0000
1010
0110
0000
1010
0100
0001
0010
,
0001
1000
0101
0010
1001
0100
0101
0010
,
0000
0101
1001
0010
1000
1000
0100
0010
,
0000
0110
1000
0202
0303
1000
0001
0010
,
1000
0000
0100
0000
1010
0000
0010
0100
1000
0000
0001
0000
0101
0000
0010
0100
,
1000
1000
0101
0001
0010
0100
1001
0202
,
0303
2020
3030
0000
1000
0100
1001
1010
,
0000
0000
0100
0000
1001
0000
0100
0001
0010
0000
0100
0000
0011
0000
2002
0000
,
3003
0000
0000
0000
1002
0000
0000
0000
1003
0000
1000
0000
0000
0000
0100
0010
,
0001
0010
1001
0000
0101
0000
1001
0100
,
0010
0010
2002
3003
0100
0022
0033
2020
,
3030
0100
0001
0010
0100
0001
1001
1000
,
0010
0100
1001
0010
1000
0001
1001
0100
,
0010
1000
1001
0100
0010
1000
1001
0010
,
0100
0010
2020
3030
0002
2003
3010
2200
,
0000
3300
0011
1000
0001
1000
0101
0022
,
0033
0000
0000
0000
1100
0000
0010
0000
1000
0000
0010
0100
1000
0010
0100
0010
,
0001
0000
1001
0100
1001
1000
0101
0011
,
0000
1000
0101
0101
0000
0010
1001
0010
,
0100
0000
0001
0000
1001
0000
0100
0001
0010
0000
0001
0000
1001
0000
1100
0000
,
0000
0000
0001
0000
1000
0000
0100
0001
0010
0000
0100
0010
1001
0000
0010
0100
,
0000
1000
1001
0100
1000
0100
1001
1000
,
0010
0000
0100
0000
1010
0000
0001
0100
0010
0000
1000
0000
0001
0100
0010
0000
,
0001
0000
1100
0000
1001
0000
0010
0000
1000
0100
0010
0000
1001
0000
0101
0000
,
0000
0000
1010
0000
1001
0000
0010
0001
0100
0000
0100
0010
0002
0000
0000
0000
,
2003
0000
3001
0100
1010
0110
1001
0101
,
0000
0000
1000
0000
1001
0000
0100
0000
0010
0000
1000
0000
0101
0000
0001
0010
,
1000
0000
0010
0000
1100
0000
0010
0000
0001
0000
0100
0010
0001
0000
0001
0010
,
0100
0000
0010
0000
1001
0000
0100
0000
0101
0000
0000
0000
0011
0000
1000
0100
,
0010
0000
0100
0000
1001
0000
0010
0100
1000
0000
0010
0000
1001
0000
0022
0000
,
0033
0000
0100
0000
1010
0000
0220
0000
0330
0000
0010
0000
1100
0000
0010
0100
,
1000
0000
0001
0000
0011
0000
0100
0000
1000
0100
0010
0000
0100
0001
0010
0000
,
0010
0001
0100
0000
1001
0000
1000
0000
0100
0000
0001
0000
1100
0000
1000
0000
,
1100
0001
1010
0010
1000
0100
0011
0100
,
0001
0000
1010
0000
1001
0000
0001
0000
0100
0000
0001
0000
1001
0000
0001
0010
,
0100
0000
0001
0010
0100
0000
0001
0010
0100
0000
0010
0000
1001
0000
1000
0000
,
0010
1000
0100
0000
0101
0000
1000
0000
0100
0000
0001
0010
1000
0000
0200
0000
,
0300
0001
1000
0001
0100
0010
1000
0200
,
0300
0100
0011
1000
0010
1000
0101
0011
,
0000
1000
1001
1100
0000
0100
1001
0110
,
0000
0000
0010
0100
1000
0000
0010
0100
1000
0000
0010
0100
1000
0000
0101
0000
,
0010
0000
0010
0000
0010
0000
0000
0000
1010
0000
0100
0010
0001
0000
1001
0000
,
0000
0011
2020
3030
0101
0202
0303
2100
,
0000
0100
0100
3010
1001
2000
3000
0011
,
0000
0001
0101
0110
1001
0220
0330
0102
,
0000
0000
0100
0000
0100
0000
0000
0000
0103
0000
0010
0100
1000
0000
1010
0000
,
0010
0100
0022
0033
1010
0010
1001
2200
,
3300
0011
1010
0100
0010
0101
1010
2200
,
0000
0000
0000
0300
,
0000
0000
3000
0000
;

//---------------dance-single - Copied from Copied f----------------
#NOTES:
     dance-single:
     Copied from Copied f:
     Medium:
     4:
     0.455,0.451,0.227,0.443,0.000,244.000,22.000,43.000,0.000,0.000:
0000
0000
0000
0000
0000
0000
0000
0100
,
0000
0100
0100
0000
0001
0000
0000
0010
,
0000
0010
0010
0000
1000
0000
0000
0000
,
0202
0000
0000
0000
0000
0303
1000
0100
,
0000
0101
0000
0000
0000
1000
0100
0010
,
0000
0010
0100
1000
0000
1000
0100
0001
,
0000
0100
0010
0100
1000
0001
0100
0010
,
0000
1000
0100
0001
0010
0100
1000
0101
,
0000
2020
0000
0000
3030
0100
0001
1000
,
0000
0100
0001
1000
0000
0100
0010
2002
,
3003
0000
0002
0000
1003
0100
0000
1001
,
0000
0010
1000
0000
0101
0000
1000
0100
,
0000
0010
0100
0000
0100
0100
0000
2200
,
0000
0000
3300
0010
0100
0001
0000
1000
,
0010
0100
0002
0003
0100
0002
0003
0200
,
0300
1000
0010
0000
2200
0000
3300
0020
,
0030
0100
2000
3000
0001
0020
0030
0200
,
0000
0300
0010
1000
0001
1000
0100
0022
,
0000
0000
0000
0033
,
0000
0000
1000
0100
0001
1000
0100
0010
,
0000
1000
0100
0001
0000
0000
0000
0010
,
0100
0001
1000
0100
0010
0001
1000
0200
,
0000
0000
0000
0000
0000
0000
0000
0300
,
0000
1000
0001
0100
1000
0100
0001
1000
,
0010
0100
0010
0101
0000
1000
0010
0000
,
0001
1000
0000
0101
0000
0010
0100
0001
,
0000
1010
0000
0001
0200
0300
0020
0000
,
2030
3200
0300
0100
,
0000
1000
0001
0100
0010
1000
0100
0010
,
0100
1000
0100
0020
0000
0000
0030
0002
,
0003
0010
1000
0100
0001
0000
0010
1000
,
0010
0100
0001
0000
1000
0010
0000
0101
,
0000
1000
0100
0001
0000
0010
1000
0010
,
0100
0001
0010
0100
1000
0010
0100
0001
,
0000
0010
0100
1000
0100
0001
0100
1000
,
0200
0000
0010
0000
0000
0300
0001
0100
,
0000
2020
0000
0000
3030
0001
0100
1000
,
0000
0001
0100
1000
0000
0001
0100
2020
,
0000
0000
3030
0000
0100
0001
0100
1000
,
0000
0001
0100
1000
0100
0010
0001
1000
,
0000
0202
0000
0000
0303
1000
0100
0010
,
0000
1000
0001
1000
0000
0100
1000
0010
,
0000
0000
0010
0000
1000
0001
0000
0102
,
0000
0100
0100
0003
0100
0000
0000
0100
,
0000
0100
0001
0000
0010
0100
0000
2200
,
0000
3300
0000
0100
0001
2000
0000
3010
,
0000
0000
0001
0000
0010
0100
0000
2100
,
0000
0100
0100
0000
0100
0000
3000
0100
,
0000
0100
1000
0000
0001
0010
0000
2200
,
3300
0000
0010
0100
0010
0001
1000
2200
,
0000
0000
0000
0000
,
0300
0000
3000
0000
;

//---------------dance-single - Copied from Copied f----------------
#NOTES:
     dance-single:
     Copied from Copied f:
     Easy:
     2:
     0.365,0.371,0.082,0.113,0.000,229.000,8.000,11.000,0.000,0.000:
0000
0000
0000
0000
0000
0000
0000
0100
,
0000
0100
0100
0000
0001
0000
0000
0010
,
0000
0010
0010
0000
1000
0000
0000
0000
,
0002
0000
0000
0000
0000
0003
1000
0100
,
0000
0001
0000
0000
0000
1000
0100
0010
,
0000
0010
0100
1000
0000
1000
0100
0001
,
0000
0100
0010
0100
1000
0001
0100
0010
,
0000
1000
0100
0001
0010
0100
1000
0001
,
0000
1000
0000
0000
0000
0100
0001
1000
,
0000
0100
0001
1000
0000
0100
0010
1001
,
0000
0000
0001
0000
1000
0100
0000
0001
,
0000
0010
1000
0000
0001
0000
1000
0100
,
0000
0010
0100
0000
0100
0100
0000
1000
,
0000
0000
0000
0010
0100
0001
0000
1000
,
0010
0100
0001
0000
0100
0001
0000
0200
,
0000
0000
0000
0300
,
0000
0000
1000
0000
0001
0010
0000
0100
,
0000
0000
0010
1000
0001
1000
0100
0020
,
0000
0000
0000
0000
,
0030
0000
1000
0100
0001
1000
0100
0010
,
0000
1000
0100
0001
0000
0000
0000
0010
,
0100
0001
1000
0100
0010
0001
1000
0200
,
0000
0300
0000
0000
0000
0000
0000
0000
,
0000
1000
0001
0100
1000
0100
0001
1000
,
0010
0100
0010
0001
0000
1000
0010
0000
,
0001
1000
0000
0100
0000
0010
0100
0001
,
0000
1000
0000
0001
0100
0000
0020
0030
,
2000
3000
0200
0000
0300
0000
0100
0000
,
0000
1000
0001
0100
0010
1000
0200
0000
,
0000
0300
0000
0000
0000
0000
0000
0001
,
0000
0010
1000
0100
0001
0000
0010
2000
,
0000
3000
0001
0000
1000
0010
0000
0100
,
0000
1000
0100
0001
0000
0010
1000
0010
,
0100
0001
0010
0100
1000
0010
0100
0001
,
0000
0010
0100
1000
0100
0001
0100
1000
,
0200
0000
0000
0000
0000
0300
0001
0100
,
0000
1010
0000
0000
0000
0001
0100
1000
,
0000
0001
0100
1000
0000
0001
0100
1010
,
0000
0000
0000
0000
0100
0001
0100
1000
,
0000
0001
0100
1000
0100
0010
0001
1000
,
0000
0101
0000
0000
0000
1000
0100
0010
,
0000
1000
0001
1000
0000
0100
1000
0010
,
0000
0000
0010
0000
1000
0001
0000
0101
,
0000
0100
0100
0000
0100
0000
0000
0100
,
0000
0100
0001
0000
0010
0100
0000
1100
,
0000
0000
0000
0100
0001
1000
0000
0010
,
0000
0000
0001
0000
0010
0100
0000
1100
,
0000
0100
0100
0000
0100
0000
0000
0000
,
0000
0000
1000
0000
0001
0010
0000
1100
,
0000
0000
0010
0100
0010
0001
1000
0200
,
0000
0000
0000
0000
,
0000
0000
0300
0000
;
